Alcachofa FanSub/Films

> Tu FanSub Castellano

Carnival Phantasm

top_01

Carnival Phantasm – “Carnaval Fantasma” (カーニバル・ファンタズム Kānibaru Fantazumu)Carnaval Fantasma es una serie de anime en formato OVA basada en el manga de Type-Moon Take-Moon (テイク・ムーン Teiku Mūn) de Eri Takenashi, el autor de Kannagi: Crazy Shrine Maidens. La serie OVA fue creada por Type-Moon para celebrar el décimo aniversario de la compañía. La serie se enfoca en situaciones divertidas o absurdas que acontecen a varios personajes de las franquicias de Type-Moon Fate/stay night y Tsukihime.

Título: Carnival Phantasm – “Carnaval Fantasma” (カーニバル・ファンタズム Kānibaru Fantazumu)
Género: Comedia, Fantasía
Episodios: 15
Estado: Terminada
Dirección: Seiji Kishi
Estudio: Lerche
Primera emisión: 12 de agosto de 2011
Última emisión: 31 de diciembre de 2011
Idioma: Japones
Subtítulos: Español
Tamaño: 500MB
Formato: MKV
Resolución: 1920x1080p
FanSub: EvermorE Fansub
Calidad: Excelente
Servidores: Mega
Calificación mia del anime: Muy entretenida y de mucha comedia y parodia, para poder entenderla tenéis que ver por lo menos Fate: http://alcachofafilms.es/fatezero-1080p/ http://alcachofafilms.es/fatestay-night-1080p-mkv-mp4/ http://alcachofafilms.es/fatestay-night-unlimited-blade-works1080p-mkv-mega/

El anime es producido por los estudios Lerche y dirigida por Seiji Kishi, producido por Yūji Higa, escrito por Makoto Uezu y música de Yasuharu Takanashi. El anime fueron saliendo 4 episodios por temporada. La primera temporada se estrenó el 12 de agosto de 2011, la segunda temporada el 28 de octubre de 2011 y la tercera temporada el 31 de diciembre de 2011. Un episodio adicional titulado “Carnival Phantasm EX Season” fue lanzado junto con la versión general del manga Take-Moon en 26 de noviembre 2011.

El tema de apertura del anime es “Super Affection” (すーぱー☆あふぇくしょん) por Minami Kuribayashi, Miyuki Hashimoto, Faylan, Aki Misato, Yozuca* and Rino y el tema de cierre es “Fellows” por Masaaki Endou.

Rin Tōsaka (遠坂 凛 Tōsaka Rin)

Una de las protagonistas principales de Fate/stay night. En Carnival Phantasm, también aparece en una forma alter ego Magical Girl conocido como Kaleido Rubí.

Neco Arc (ネコアルク Neko Aruku)

Un espíritu de gato con parentesco físico a Arculed Brunestud de Tsukihime, ella, junto con otros gatos sirven como presentadores del programa y frecuentemente comentan sobre la historia del episodio; también presentan los segmentos y los interludios; en algunos capítulos toma otros roles, además del de presentadora. Su actor de doblaje es Ryōka Yuzuki quien también presta su voz para Arcuied.

Neco Arc Chaos (ネコアルク・カオス Neko Aruku Kaosu)

Un espíritu de gato con parentesco físico a Nrvnqsr Chaos de Tsukihime. Es a menudo visto fumando un cigarrillo. Su voz es hecha por Jōji Nakata la cual es tanto la voz de Kotomine Kirei y Nrvnsqsr Chaos, ambos antagonistas en Fate/Stay Night y Tsukihime respectivamente.

Neco Arc Destiny (ネコアルク・ディスティニー Neku Aruku Dessutennī)

Un espíritu de gato con cabello rosa. Es sensata y regularmente conversa con los demás con una actitud reservada.

Neco Arc Bubbles (ネコアルク・バブルス Neku Aruku Baburusu)

Un espíritu de gato con pelo rubio. Ella balbucea y asiente con la cabeza en acuerdo con cualquier situación, manteniendo una gran sonrisa en el rostro.

[Neco Arc Evolution (ネコアルク・エボリューション Neku Aruku Eboryūshon)

Un otaku espíritu de gato con una fijación e Phantas-Moon, es visto se le ve familiarizado con los gatos de Ahnenerbe, pero ellos no lo reconocen. Su vos es dada por Kenji Nojima que es la misma voz de Shiki Tohno.

Sehai-Kun

Una representación del Santo Grial de Fuyuki, escucha los problemas de los otros personajes de la serie, pero a menudo no más de lo que les aconseja usar un cuchillo para resolver sus problemas para su gran asombro.

Saber (セイバー Seibā)

Shirou Emiya (衛宮 士郎 Emiya Shirō)

Emiya.Shirou.full.623183

[ricarod] Carnival Phantasm - 01.mkv_snapshot_00.47_[2013.04.25_15.34.07]

[ricarod] Carnival Phantasm - 02.mkv_snapshot_07.47_[2013.04.25_16.07.49]

[ricarod] Carnival Phantasm - 03.mkv_snapshot_08.41_[2013.04.25_16.08.38]

[ricarod] Carnival Phantasm - 04.mkv_snapshot_03.38_[2013.04.25_16.08.54]

[ricarod] Carnival Phantasm - 05.mkv_snapshot_07.11_[2013.04.25_16.18.14]

[ricarod] Carnival Phantasm - 06.mkv_snapshot_05.14_[2013.04.25_16.18.57]

[ricarod] Carnival Phantasm - 07.mkv_snapshot_07.30_[2013.04.25_16.20.06]

[ricarod] Carnival Phantasm - 08.mkv_snapshot_03.47_[2013.04.25_16.21.43]

[ricarod] Carnival Phantasm - 09.mkv_snapshot_05.48_[2013.04.25_16.22.31]

[ricarod] Carnival Phantasm - 10.mkv_snapshot_00.19_[2013.04.25_16.23.16]

[ricarod] Carnival Phantasm - 11.mkv_snapshot_04.44_[2013.04.25_16.24.10]

[ricarod] Carnival Phantasm - 12.mkv_snapshot_09.33_[2013.04.25_16.25.47]

Opening

Ending

http://www.servermurcia.es/anime/mega/Carnival Phantasm.txt

F94A95640

General
Complete name : [ricarod] Carnival Phantasm – 01.mkv
Format : Matroska
Format version : Version 2
File size : 465 MiB
Duration : 13mn 12s
Overall bit rate : 4 925 Kbps
Encoded date : UTC 2011-08-21 23:59:32
Writing application : mkvmerge v4.9.1 (‘Ich will’) creado el Jul 11 2011 23:53:15
Writing library : libebml v1.2.1 + libmatroska v1.1.1

Video
ID : 1
Format : AVC
Format/Info : Advanced Video Codec
Format profile : High@L4.1
Format settings, CABAC : Yes
Format settings, ReFrames : 4 frames
Muxing mode : Header stripping
Codec ID : V_MPEG4/ISO/AVC
Duration : 13mn 12s
Bit rate : 4 566 Kbps
Width : 1 920 pixels
Height : 1 080 pixels
Display aspect ratio : 16:9
Frame rate : 23.976 fps
Color space : YUV
Chroma subsampling : 4:2:0
Bit depth : 8 bits
Scan type : Progressive
Bits/(Pixel*Frame) : 0.092
Stream size : 438 MiB (94%)
Writing library : x264 core 116 r2057 0ba8a9c
Language : English
Default : Yes
Forced : No

Audio
ID : 3
Format : AC-3
Format/Info : Audio Coding 3
Mode extension : CM (complete main)
Muxing mode : Header stripping
Codec ID : A_AC3
Duration : 13mn 12s
Bit rate mode : Constant
Bit rate : 192 Kbps
Channel(s) : 2 channels
Channel positions : Front: L R
Sampling rate : 48.0 KHz
Bit depth : 16 bits
Compression mode : Lossy
Stream size : 18.1 MiB (4%)
Default : Yes
Forced : No

Text
ID : 2
Format : ASS
Codec ID : S_TEXT/ASS
Codec ID/Info : Advanced Sub Station Alpha
Compression mode : Lossless
Default : Yes
Forced : No

http://jdownloader.org/download/index

http://k-lite-codec-pack.softonic.com/

Comentarios: